#TITLE:Agony;
#SUBTITLE:- Kannazuki no Miko Ending;
#ARTIST:KOTOKO;
#TITLETRANSLIT:;
#SUBTITLETRANSLIT:;
#ARTISTTRANSLIT:;
#CREDIT:Tweety;
#BANNER:Agony-logo.jpg;
#BACKGROUND:Agony-bg.jpg;
#LYRICSPATH:Trance.lrc;
#CDTITLE:cdtitle02.png;
#MUSIC:Agony.mp3;
#OFFSET:-0.280;
#SAMPLESTART:45.753;
#SAMPLELENGTH:12.000;
#SELECTABLE:YES;
#BPMS:0.000=132.040;
#STOPS:;
#BGCHANGES:23.500=Kannaduki.avi=1.000=0=0=1,
217.000=Agony-bg.jpg=1.000=0=0=1,
99999=-nosongbg-=1.000=0=0=0 // don't automatically add -songbackground-
;
// cache tags:
#FIRSTBEAT:8.000;
#LASTBEAT:217.000;
#SONGFILENAME:songs/Otaku's Dream 3rd Anime Mix/[Tweety3187] Agony - Kannazuki no Miko ED/Trance.sm;
#HASMUSIC:1;
#HASBANNER:1;
#MUSICLENGTH:101.120;
// end cache tags

//---------------dance-single - ----------------
#NOTES:
     dance-single:
     :
     Challenge:
     13:
     1.000,1.000,1.000,0.524,1.000,745.000,334.000,53.000,0.000,0.000:
0000
0000
0000
0000
,
0000
0000
0000
0000
,
0011
1000
0100
1000
0110
1000
0011
0012
,
0000
0103
1100
0010
0101
1000
0110
0010
,
1010
0100
0010
0100
0011
1000
1100
2100
,
0000
3010
0110
1000
1001
0100
0011
0001
,
1100
0000
1100
1001
0100
0000
0101
1100
0110
0000
0011
0011
0100
0000
1010
0110
,
1001
0000
0000
0000
1100
0000
1100
0000
0010
0000
0000
0000
0110
0000
1010
0000
0022
0000
0000
0033
2020
0000
0000
3030
0220
0000
0000
0330
2200
0000
0000
3300
,
1001
0000
0110
1001
0100
0000
0110
0000
1001
0000
1010
0101
1000
0000
1010
1010
,
0101
0000
0000
0000
0110
0000
0110
0000
0001
0000
0000
0000
0011
0000
1100
0000
0220
0000
0000
0330
2200
0000
0000
3300
2020
0000
0000
3030
2002
0000
0000
3003
,
0101
0010
1100
1100
0010
1000
0101
1000
0110
0001
1100
1100
0010
1000
0101
0101
,
0101
1000
0110
0110
0001
0010
1100
0001
0110
1000
0011
1000
0110
0001
1100
0010
,
1001
1000
0110
0110
1000
0100
0011
0011
0011
1000
0101
0010
1001
0100
1020
0000
,
1000
0001
1000
0001
1000
0001
1000
0001
1000
0001
1000
0001
1000
0001
1000
0001
1030
0001
1000
0001
1100
0001
1000
0001
1100
0001
1000
0001
1100
0001
1000
0001
,
0110
0001
1100
0110
0001
0010
1100
0001
0110
1000
0011
0101
1000
0010
0110
1001
,
0110
0001
1100
1100
0001
0001
0110
1010
0110
0010
1001
0010
0101
1000
0110
0001
,
1100
0010
1100
0011
0100
0100
1010
0001
0110
1000
0011
0101
0010
1000
0110
0110
,
0110
1000
0011
0011
1000
1000
0110
1001
0110
1000
0011
0100
1010
0001
0110
1000
,
0011
0100
1100
0110
0001
0010
1001
0001
0110
0001
1010
0110
0001
1000
0011
0101
,
0110
0001
1100
1100
0010
1000
0110
0011
0011
0100
1010
0001
0110
0001
1100
0100
,
0010
1000
0010
1000
0010
1000
0010
1000
0010
0000
0000
0000
1000
0001
1000
0001
1000
0001
1000
0001
1000
0001
1000
0001
1000
0000
0100
0000
0010
0000
0100
0000
,
0011
0011
1000
1010
1010
0100
0011
1100
0110
0101
1010
1001
0110
1010
0101
0110
,
1001
0100
1000
0011
0100
0000
0110
0001
2100
0010
0100
0001
3010
0000
0101
0110
,
1100
0001
0110
1000
0110
0000
1001
0010
0100
1000
0011
1000
0101
0000
1010
1100
,
2100
0000
0001
0001
3001
0000
0110
1100
0012
0000
0100
0100
0103
0000
1010
0101
,
1020
0000
0001
0001
0031
0000
1010
1100
0011
1000
0110
0001
1100
0001
0110
0010
,
2002
0000
3003
0202
0000
0303
0220
0330
2100
0000
0001
0010
0001
0000
0010
0100
,
3010
0000
1010
0001
0110
1000
0011
0100
1000
0000
0101
1000
0110
0001
1010
0001
,
1100
0000
0011
0101
0010
0000
1100
1100
1100
0001
0011
1000
0101
1000
0011
0100
,
1010
0000
0100
0000
1001
0000
0000
0000
1001
0000
0000
0000
0010
0000
0000
0000
0001
0100
0001
0100
0001
0100
0001
0100
0001
0100
0001
0100
1001
0100
1001
0100
,
1001
0010
0001
0100
1001
0010
0101
0010
0100
0001
1010
0001
0110
0001
1010
0110
,
0001
1000
0100
0001
0010
1000
0011
1010
1100
0010
0011
1000
0110
0001
1010
2010
,
0001
0100
0001
3010
0001
0000
0110
1001
0110
1000
0101
0010
1001
0100
0011
0021
,
1000
0100
1000
0130
0001
0100
1010
0001
2100
0010
0001
3001
0120
1000
0100
0130
,
1001
0010
0101
0011
0100
0000
1010
1010
1010
0000
0110
0110
0001
0000
0110
1100
,
0011
0000
0110
1001
0100
0000
1010
0110
0011
1000
0110
1000
0011
1000
0110
1000
,
0201
0010
0001
0010
0001
0310
1001
1100
0012
1000
0100
1000
0100
1000
0100
1003
,
0110
0001
1000
0100
0011
1000
0110
0110
0001
0001
1010
0100
0011
1000
0011
0100
,
0011
1000
0100
0001
1010
0001
0110
0001
1000
0100
0011
1000
0101
0001
1010
0102
,
0010
1000
0100
0013
1000
0100
0011
0011
0011
1000
0110
0001
1010
0100
1001
2001
,
0010
0100
0010
3001
0100
0001
0110
0011
1010
0001
1100
0010
1100
0001
0110
1002
,
0100
1000
0100
0013
1000
0001
0110
1000
0012
0100
0010
1003
0201
0010
0001
0310
,
0110
0001
1010
0110
0001
0000
0110
1100
1100
0000
0011
0101
0010
0000
1010
1100
,
0011
0000
0101
1010
0001
0000
0110
0000
2010
0000
3001
0000
0120
0000
1030
0000
,
0011
0000
0101
0012
1000
0100
1000
0100
0010
0100
0010
0100
1000
0010
1000
0013
,
0101
0000
0010
0000
2000
0000
3002
0023
0000
0000
0230
0000
0320
0000
0230
0000
,
0302
0010
1000
0100
0010
0100
1000
0100
0010
0100
1000
0100
0010
0100
1003
0100
,
0011
0100
0010
0001
1010
0001
0010
1000
0110
0001
1000
0100
0011
0100
0010
0100
,
1001
0010
1000
0010
0101
1000
0001
1000
0110
0100
0010
0001
1010
0100
0001
0010
,
1100
0001
0100
1000
0011
1000
0010
1000
0101
0010
0100
0001
0110
1000
0001
0100
,
1010
0100
0010
0100
1010
0001
0010
0001
0110
1000
0100
1000
0011
1000
0100
0010
,
0101
1000
0010
0001
1010
0100
0010
0001
1100
0010
0001
1000
0110
0001
1000
0100
,
0011
1100
0011
1100
0011
1100
0011
1100
1001
0110
1001
0110
1001
0110
1001
0110
,
2002
0000
0000
0000
,
0000
3003
0000
0000
;

//---------------dance-single - Copied from----------------
#NOTES:
     dance-single:
     Copied from:
     Hard:
     11:
     1.000,1.000,1.000,0.593,1.000,611.000,230.000,60.000,0.000,0.000:
0000
0000
0000
0000
,
0000
0000
0000
0000
,
1100
0010
0001
0010
0101
0000
1100
2100
,
0000
3001
0011
0000
1001
0000
0101
0000
,
0110
0001
0100
0001
1100
0000
0011
0021
,
0000
0130
0101
0000
1010
0000
1100
0000
,
0011
0000
0001
1010
0000
0000
1000
0001
0101
0000
0100
1100
0000
0000
0010
0100
,
1010
0000
0000
0000
0001
0000
0011
0000
0000
0000
0000
0000
0001
0000
0010
0000
2200
0000
0000
3300
0220
0000
0000
0330
0202
0000
0000
0303
0022
0000
0000
0033
,
1010
0000
0100
1010
0000
0000
0101
0000
1010
0000
0010
1001
0000
0000
0010
0010
,
1001
0000
0000
0000
0001
0000
0101
0000
0000
0000
0000
0000
1000
0000
0010
0000
0202
0000
0000
0303
0022
0000
0000
0033
0220
0000
0000
0330
2020
0000
0000
3030
,
1001
0100
0010
0001
0100
0010
1000
0010
0001
1000
0001
0010
0100
0010
0001
0100
,
1000
0010
0001
0010
1000
0100
0010
0001
0001
0010
0100
1000
0100
1000
0100
0010
,
0001
0010
0100
0001
0010
0001
0100
1000
0100
0010
0001
0100
1000
0001
2010
0000
,
0010
0001
0010
0001
0010
0001
0010
0001
0010
0001
3010
0001
0100
0001
1000
0001
,
0110
0000
0011
0101
1000
0000
0011
0000
0101
0000
1100
1001
0010
0000
0101
1010
,
0101
0000
0011
0011
1000
0000
0101
0110
0101
0000
1010
0000
1001
0000
0101
0000
,
0011
0000
0011
1100
0001
0000
0110
0000
0101
0000
1100
1001
0100
0000
0101
0101
,
0101
0000
1100
1100
0010
0000
0101
1010
0101
0000
1100
0000
0110
0000
0101
0000
,
1100
0000
0011
0101
1000
0000
1010
0000
0101
0000
0110
0101
1000
0000
1100
1001
,
0101
0000
0011
0011
0100
0000
0101
1100
1100
0000
0110
0000
0101
0000
0011
1000
,
0100
0010
0100
0010
0100
0010
0100
0010
0100
0000
0000
0000
0010
1000
0010
1000
0010
1000
0010
1000
0010
1000
0010
1000
0010
0000
0000
0000
0100
0000
0001
0000
,
1100
1100
0000
0110
0110
0000
1000
0010
0101
1000
0110
1000
0101
0010
1001
0100
,
2020
0000
3030
2200
0000
3300
0202
0303
0021
0000
0001
1000
0130
0000
1001
0100
,
0011
0000
0101
0000
0101
0000
1010
0100
0001
0000
1100
0000
1001
0000
0110
0001
,
0011
0000
1000
0100
1000
0000
0101
0010
1100
0000
0001
0010
0001
0000
0110
0001
,
0110
0000
0000
0110
1000
0000
0110
0001
1100
0010
0101
1000
0011
1000
0101
0001
,
2020
0000
3030
2002
0000
3003
0202
0303
0021
0000
1000
0100
1000
0000
0100
0001
,
0130
0000
0110
0000
1001
0000
1100
0001
0010
0000
1001
0010
0101
1000
0110
1000
,
0011
0000
1100
0011
0100
0000
0011
1000
0011
0000
1100
0010
1001
0010
1100
0001
,
0110
0000
0000
0000
1010
0000
0000
0000
1010
0000
0000
0000
0100
0000
0000
0000
1000
0001
1000
0001
1000
0001
1000
0001
1000
0001
1000
0001
1000
0001
1000
0001
,
1010
0000
1000
0000
1010
0000
1001
0100
0001
0000
0110
0000
0101
0000
0110
0101
,
1000
0000
0001
1000
0100
0000
1100
0110
0011
0000
1100
0000
0101
0000
0110
0120
,
1000
0000
1000
0130
1000
0000
0101
1010
0101
0000
1001
0000
1010
0000
1100
1200
,
0010
0000
0010
0301
1000
0000
0110
0000
0021
0100
1000
1030
0201
0010
0001
0301
,
1010
0000
1001
1100
0000
0000
0110
0110
0110
0000
0101
0101
0000
0000
0101
0011
,
1100
0000
0000
0000
0101
0000
1010
0000
0000
0000
0000
0000
0110
0000
0011
0000
2000
0000
0000
0000
3020
0000
0000
0000
2030
0000
0000
0000
3200
0000
0000
0300
,
1002
0000
1000
0100
1000
0003
0110
0001
2100
0000
0001
0010
0001
0010
0001
3010
,
0100
1000
0010
0001
1000
0010
0001
0010
1000
0100
0010
0001
1000
0100
1000
0010
,
1100
0000
1000
0000
0110
0000
0101
1000
0010
0000
1100
0000
1001
0000
0110
2001
,
0100
0000
0001
3100
0010
0000
1100
1100
1100
0000
0101
0000
0110
0000
1010
1020
,
0100
0000
0100
1030
0001
0000
0101
1100
0110
0000
0011
0000
0101
0000
0101
2010
,
0001
0000
0001
3100
0010
0000
0101
0010
2100
0000
0010
3000
1002
0000
0010
0003
,
0101
0000
0110
0101
0000
0000
0101
0011
0011
0000
1100
1001
0000
0000
0110
0011
,
1100
0000
1001
0110
0000
0000
0101
0000
0120
0000
1030
0000
0201
0000
0310
0000
,
1100
0000
1001
2100
0010
0001
0010
0001
0100
0001
0100
0001
0010
0100
0010
3100
,
1001
0000
0100
0000
0020
0000
2030
3200
0000
0000
0302
0000
0203
0000
0302
0000
,
2003
0100
0010
0001
0100
0001
0010
0001
0100
0001
0010
0001
0100
0001
3010
0001
,
1000
0001
0100
1000
0010
1000
0100
0010
0100
1000
0010
0001
0100
0001
0100
0001
,
1000
0100
0010
0100
0001
0010
1000
0010
0001
0001
0100
1000
0100
0001
1000
0100
,
0001
1000
0001
0010
0100
0010
0100
0010
1000
0100
0001
1000
0001
0010
1000
0001
,
0100
0001
0100
0001
0010
1000
0100
1000
0001
0010
0001
0010
1000
0010
0001
0100
,
1000
0010
0100
1000
0010
0001
0100
1000
0001
0100
1000
0010
0001
1000
0010
0001
,
1000
0010
1000
0001
1000
0010
0100
0001
1000
0100
0010
0001
1000
0100
0010
0001
,
2020
0000
0000
0000
,
0000
3030
0000
0000
;

//---------------dance-single - ----------------
#NOTES:
     dance-single:
     :
     Medium:
     6:
     0.413,0.483,0.405,0.307,0.000,220.000,41.000,31.000,0.000,0.000:
0000
0000
0000
0000
,
0000
0000
0000
0000
,
1000
1000
1000
1000
,
1000
1000
1000
1000
,
0001
0001
0001
0001
,
0001
0001
0001
0001
,
0001
0000
0010
1000
0100
0000
0010
1000
,
0100
0000
0010
0100
0010
0000
0001
1000
,
0001
0000
0100
0100
0100
0000
0010
0010
,
0010
0000
1000
1000
1000
0000
0100
0010
,
0001
0000
0100
0010
0100
0000
0001
1000
,
0010
0000
0100
0010
0100
0000
0001
1000
,
0010
0000
0100
0001
0010
0000
0001
0001
,
2002
0000
0000
3003
,
0012
1003
0210
0301
,
2010
3100
0021
0031
,
2010
3100
0201
0310
,
2001
3100
0012
0103
,
0012
1003
2100
3010
,
0201
0310
1000
0010
,
2001
0001
0001
0001
,
0010
0010
0010
3010
,
1001
0000
0110
0000
1001
0000
0001
0001
,
0001
0000
0010
0000
1000
0000
0100
0100
,
0100
1001
0010
1001
,
0100
1001
0010
0100
,
0120
0100
0100
0100
,
0130
1000
0001
0100
,
0011
0010
1000
0001
,
2002
0000
0000
3003
,
1002
0000
0103
0010
0100
0000
0001
0000
,
2010
0000
3100
0100
0100
0000
0001
0000
,
0210
0000
0301
0010
0001
0000
1000
0000
,
0012
0000
1003
1000
1000
0000
0100
0000
,
1010
0100
0011
0010
,
1001
0100
0001
0001
,
0120
0100
0100
0130
,
1000
0010
0101
0010
,
2010
0000
3001
0100
0001
0000
1000
0000
,
0120
0000
0031
0001
0001
0000
1000
0000
,
0102
0000
1003
0100
1000
0000
0010
0000
,
2100
0000
3010
0010
0010
0000
0001
0000
,
0110
0001
1100
0100
,
1010
0001
1000
1000
,
0201
0001
0001
0301
,
0220
0000
0000
0330
,
0001
0100
0010
0100
,
0010
1000
0001
1000
,
0010
0100
0010
0001
,
0010
0100
1000
0100
,
0010
1000
0001
0010
,
0100
0001
0010
1000
,
0010
0100
0001
0100
,
2002
0000
0000
0000
,
0000
3003
0000
0000
;

//---------------dance-single - Copied from----------------
#NOTES:
     dance-single:
     Copied from:
     Easy:
     4:
     0.340,0.349,0.178,0.307,0.000,192.000,18.000,31.000,0.000,0.000:
0000
0000
0000
0000
,
0000
0000
0000
0000
,
0010
0010
0010
0010
,
0010
0010
0010
0010
,
1000
1000
1000
1000
,
1000
1000
1000
1000
,
1000
0100
0001
0100
,
0001
0100
0100
1000
,
1000
0001
0001
0100
,
0100
0010
0010
0001
,
1000
0001
0001
1000
,
0100
0001
0001
1000
,
0100
0001
0100
1000
,
2020
0000
0000
3030
,
2000
3010
0002
1003
,
0020
0031
0200
1300
,
0020
0031
0002
0103
,
0020
0031
2000
3001
,
2000
3010
0020
0130
,
0002
0103
0010
0100
,
1020
1000
1000
1000
,
0100
0100
0100
0130
,
0001
0100
1000
1000
,
1000
0100
0010
0001
,
0101
1000
0100
0010
,
1001
0010
0100
0001
,
0201
0001
0001
0001
,
0301
0010
1000
0001
,
1100
0100
0010
1000
,
2020
0000
0000
3030
,
2000
3001
0001
1000
,
0020
0031
0001
1000
,
0002
1003
1000
0010
,
2000
3010
0010
0001
,
0110
0000
1100
0000
,
1010
0001
1000
1000
,
0201
0001
0001
0301
,
0010
0100
1001
0100
,
0020
1030
1000
0010
,
0200
1300
1000
0010
,
2000
3010
0010
0100
,
0020
0130
0100
1000
,
0101
0000
0011
0000
,
0110
1000
0010
0010
,
1002
1000
1000
1003
,
0202
0000
0000
0303
,
1000
0001
0100
0001
,
0100
0010
1000
0010
,
0100
0001
0100
1000
,
0100
0001
0010
0001
,
0100
0010
1000
0100
,
0001
1000
0100
0010
,
0100
0001
1000
0001
,
2020
0000
0000
0000
,
0000
3030
0000
0000
;

//---------------dance-single - Copied from Copied f----------------
#NOTES:
     dance-single:
     Copied from Copied f:
     Beginner:
     3:
     0.203,0.268,0.079,0.119,0.000,124.000,8.000,12.000,0.000,0.000:
0000
0000
0000
0000
,
0000
0000
0000
0000
,
1000
0000
1000
0000
,
1000
0000
1000
0000
,
0100
0000
0100
0000
,
0100
0000
0100
0000
,
0100
0000
0010
0000
,
0010
0000
0001
0000
,
0100
0000
0010
0000
,
0001
0000
1000
0000
,
0100
0000
0010
0000
,
0001
0000
0010
0000
,
0001
0000
0001
0000
,
2200
0000
0000
3300
,
0100
1000
0010
0100
,
1000
0010
0001
0100
,
1000
0010
0010
0001
,
1000
0010
0100
0010
,
0100
1000
1000
0001
,
0010
0001
1000
0001
,
2100
0000
0100
0000
,
0001
0000
0001
3000
,
0010
0001
0100
0100
,
0100
0001
1000
0010
,
0001
0100
0001
1000
,
0100
1000
0001
0010
,
0012
0000
0010
0000
,
0013
1000
0100
0010
,
0100
0001
1000
0100
,
2200
0000
0000
3300
,
0100
0000
0010
0000
,
1000
0000
0010
0000
,
0010
0000
0100
0000
,
0100
0000
1000
0000
,
0001
0000
0001
0000
,
1000
0000
0100
0000
,
0012
0000
0010
0003
,
1000
0000
0100
0000
,
1000
0000
0100
0000
,
0001
0000
0100
0000
,
0100
0000
1000
0000
,
1000
0000
0001
0000
,
0001
0000
0010
0000
,
0001
0000
1000
0000
,
0120
0000
0100
0030
,
0022
0000
0000
0033
,
0100
0000
0001
0000
,
0001
0000
0100
0000
,
0001
0000
0001
0000
,
0001
0000
1000
0000
,
0001
0000
0100
0000
,
0010
0000
0001
0000
,
0001
0000
0100
0000
,
2200
0000
0000
0000
,
0000
3300
0000
0000
;
